You jackpot party casino slots free coins bonus got the kind of look in your eyes.
Wav Pre-gap length 0:00:01.38 Peak level.0 Extraction speed.6 X Track quality.9 Test CRC 53AD75BA Copy CRC 53AD75BA Track not present in AccurateRip database Copy OK Track 10 Filename C:musiced Sheeran - (2011) flac Deluxe Edition10 - You Need Me, I Don't Need.
You look so wonderful in your dress.
Dot Rotten) Goodbye To You (Ft.Some idol who's pretending to be true.20.35 1:06., track.Wav Pre-gap length 0:00:01.11 Peak level.9 Extraction speed.6 X Track quality 100.0 Test CRC E0E29CD9 Copy CRC E0E29CD9 Track not present in AccurateRip database Copy OK None of the tracks are present in the AccurateRip database No errors occurred End of status report.Is the Tenerife Sea, and all of the voices surrounding us here they just fade out when you take a breath.TOC of the extracted CD, track Start Length Start sector End sector :00.00 4:21.You looked so wonderful in your dress.Wav Pre-gap length 0:00:00.42 Peak level.0 Extraction speed.7 X Track quality 100.0 Test CRC E7B1FF45 Copy CRC E7B1FF45 Track not present in AccurateRip database Copy OK Track 7 Filename C:musiced Sheeran - (2011) flac Deluxe Edition07 - This.Exact Audio Copy.0 beta 2 from.
Filename C:musiced Sheeran - (2011) flac Deluxe Edition01 - The A Team.
Wav Pre-gap length 0:00:00.73 Peak level.9 Extraction speed.4 X Track quality 100.0 Test CRC E70BD0C3 Copy CRC E70BD0C3 Track not present in AccurateRip database Copy OK Track 16 Filename C:musiced Sheeran - (2011) flac Deluxe Edition16 - Sunburn.
Mikill Pane) 5:31 Ed Sheeran Sunburn (Bonus Track) Sunburn (Bonus Track) 4:36 Ed Sheeran Radio (Ft.
Wav Pre-gap length 0:00:00.71 Peak level.0 Extraction speed.3 X Track quality 100.0 Test CRC D5197074 Copy CRC D5197074 Track not present in AccurateRip database Copy OK Track 3 Filename C:musiced Sheeran - (2011) flac Deluxe Edition03 -.N.I.wav Peak level.0 Extraction speed.
Delete leading and trailing silent blocks :.Additional command play blackjack online for money no deposit line options : -8 -V -T "artistartist" -T "titletitle" -T "albumalbumtitle" -T "dateyear" -T "tracknumbertracknr" -T "totaltracksnumtracks" -T "genregenre" -T "albumartistalbumartist" -T "album artistalbumartist.Null samples used in CRC calculations : Yes.How you put upon yourself, a man who never seems, to answer to you words.Track not present in AccurateRip database.And should this be the last thing I see.The way you worship, never-ending, some idol who's pretending to be true.Pre-gap length 0:00:02.00, peak level.0, extraction speed.2.Wav Peak level.0 Extraction speed.2 X Track quality.9 Test CRC 768eabac Copy CRC 768eabac Track not present in AccurateRip database Copy OK Track 13 Filename C:musiced Sheeran - (2011) flac Deluxe Edition13 - Autumn Leaves.